The Kapil Sharma Show 12 Jan 2019 720p 400Mb Web DL Full Show torrent download

seeders: 210
leechers: 38
updated:
Added ago by uploader00 ***** in TV
Torrent Downloaded 10 times.
Info Hash: 38E145633A7D319DCB44BF39B840713592B16519


Torrent Files

The Kapil Sharma Show 12 Jan 2019 720p 400Mb Web-DL Full Show (Size: 459.1 MB)
  The Kapil Sharma Show 12 Jan 2019 720p 400Mb Web-DL Full Show 459.1 MB

Torrent Description



Visit http://world4ufreemovies.xyz for more content

Quote:

Format : Matroska
Format version : Version 4 / Version 2
File size : 459 MiB
Duration : 1 h 11 min
Overall bit rate : 898 kb/s
Movie name : This video is encoded by World4ufreemovies.xyz !!!
Encoded date : UTC 2019-01-13 04:25:27
Writing application : mkvmerge v21.0.0 ('Tardigrades Will Inherit The Earth') 64-bit
Writing library : libebml v1.3.5 + libmatroska v1.4.8

Video
ID : 1
Format : AVC
Format/Info : Advanced Video Codec
Format profile : [email protected]
Format settings, CABAC : Yes
Format settings, RefFrames : 4 frames
Codec ID : V_MPEG4/ISO/AVC
Duration : 1 h 11 min
Bit rate : 800 kb/s
Width : 960 pixels
Height : 540 pixels
Display aspect ratio : 16:9
Frame rate mode : Constant
Frame rate : 25.000 FPS
Color space : YUV
Chroma subsampling : 4:2:0
Bit depth : 8 bits
Scan type : Progressive
Bits/(Pixel*Frame) : 0.062
Stream size : 409 MiB (89%)
Title : World4ufreemovies.xyz
Writing library : Zencoder Video Encoding System
Default : Yes
Forced : No
Color range : Limited
Color primaries : BT.709
Transfer characteristics : BT.709
Matrix coefficients : BT.709

Audio
ID : 2
Format : AAC
Format/Info : Advanced Audio Codec
Format profile : LC
Codec ID : A_AAC
Duration : 1 h 11 min
Bit rate : 96.0 kb/s
Channel(s) : 2 channels
Channel positions : Front: L R
Sampling rate : 48.0 kHz
Frame rate : 46.875 FPS (1024 SPF)
Compression mode : Lossy
Delay relative to video : -80 ms
Stream size : 49.1 MiB (11%)
Title : World4ufreemovies.xyz
Default : Yes
Forced : No



Screenshots
<a href="http://extraimage.net/image/cr0R"><img src="http://extraimage.net/images/2019/01/13/86f176745944798c5172df627e8a376c.md.png" alt="86f176745944798c5172df627e8a376c.md.png" border="0"></a>

Visit http://world4ufreemovies.xyz for more content

<a href="http://extraimage.net/image/cr0Q"><img src="http://extraimage.net/images/2019/01/13/790b2f64f96b4669eeba1afb7ad29910.md.png" alt="790b2f64f96b4669eeba1afb7ad29910.md.png" border="0"></a>

Visit http://world4ufreemovies.xyz for more content

<a href="http://extraimage.net/image/cr0m"><img src="http://extraimage.net/images/2019/01/13/93d00de6449701876e06c41892d8858c.md.png" alt="93d00de6449701876e06c41892d8858c.md.png" border="0"></a>

Visit http://world4ufreemovies.xyz for more content

<a href="http://extraimage.net/image/cr0i"><img src="http://extraimage.net/images/2019/01/13/2f5b43c3b64b06bfb6e4ed241ea14e1c.md.png" alt="2f5b43c3b64b06bfb6e4ed241ea14e1c.md.png" border="0"></a>

Visit http://world4ufreemovies.xyz for more content

<a href="http://extraimage.net/image/cr0l"><img src="http://extraimage.net/images/2019/01/13/7c9ff45990c120fb8b40df89835dbcf8.md.png" alt="7c9ff45990c120fb8b40df89835dbcf8.md.png" border="0"></a>

Visit http://world4ufreemovies.xyz for more content



Related Torrents

torrent name size age seed leech
41.4 GB 1 minute 719 314
571.0 MB 4 minutes 184 495
1.0 GB 4 minutes 174 491
3.5 GB 4 minutes 684 125
1.7 GB 4 minutes 2 54

Sharing Widget


Download torrent
459.1 MB
seeders:1214
leechers:386
The Kapil Sharma Show 12 Jan 2019 720p 400Mb Web-DL Full Show



To share this torrent use the code below and insert it into comments, status messages, forum posts or your signature.

Torrent: The Kapil Sharma Show 12 Jan 2019 720p 400Mb Web-DL Full Show

Comments

Latest Searches