First Man 2018 720p BluRay x264 [email protected] torrent download

seeders: 723
leechers: 28
updated:
Added ago by iMaX100 ***** in Movies
Torrent Downloaded 10 times.
Info Hash: 39548CBDCF7915A8B5F38E7AB60BB8BE036D517C


Torrent Files

First Man 2018 720p BluRay [email protected] (Size: 1.1 GB)
  First Man 2018 720p BluRay [email protected] 1.1 GB

Torrent Description



Language: English

Genre: Biography | Drama | History

A look at the life of the astronaut, Neil Armstrong, and the legendary space mission that led him to become the first man to walk on the Moon on July 20, 1969.



Format : Matroska
Format version : Version 2
File size : 1.10 GiB
Duration : 2h 20mn
Overall bit rate : 1 114 Kbps
Encoded date : UTC 2019-01-12 04:29:36
Writing application : mkvmerge v29.0.0 ('Like It Or Not') 64-bit
Writing library : libebml v1.3.6 + libmatroska v1.4.9

Video
ID : 1
Format : AVC
Format/Info : Advanced Video Codec
Format profile : [email protected]
Format settings, CABAC : Yes
Format settings, ReFrames : 4 frames
Codec ID : V_MPEG4/ISO/AVC
Duration : 2h 20mn
Bit rate : 473 Kbps
Width : 1 280 pixels
Height : 536 pixels
Display aspect ratio : 2.40:1
Frame rate mode : Constant
Frame rate : 23.976 (24000/1001) fps
Color space : YUV
Chroma subsampling : 4:2:0
Bit depth : 8 bits
Scan type : Progressive
Bits/(Pixel*Frame) : 0.029
Stream size : 477 MiB (42%)
Title : www.SANET.ST
Writing library : x264 core 157 r2935 545de2f
Encoding settings : cabac=1 / ref=3 / deblock=1:0:0 / analyse=0x3:0x113 / me=hex / subme=7 / psy=1 / psy_rd=1.00:0.00 / mixed_ref=1 / me_range=16 / chroma_me=1 / trellis=1 / 8x8dct=1 / cqm=0 / deadzone=21,11 / fast_pskip=1 / chroma_qp_offset=-2 / threads=12 / lookahead_threads=2 / sliced_threads=0 / nr=0 / decimate=1 / interlaced=0 / bluray_compat=0 / constrained_intra=0 / bframes=3 / b_pyramid=2 / b_adapt=1 / b_bias=0 / direct=1 / weightb=1 / open_gop=0 / weightp=2 / keyint=240 / keyint_min=23 / scenecut=40 / intra_refresh=0 / rc_lookahead=40 / rc=2pass / mbtree=1 / bitrate=473 / ratetol=1.0 / qcomp=0.60 / qpmin=0 / qpmax=69 / qpstep=4 / cplxblur=20.0 / qblur=0.5 / ip_ratio=1.40 / aq=1:1.00
Default : Yes
Forced : No

Audio
ID : 2
Format : AC-3
Format/Info : Audio Coding 3
Mode extension : CM (complete main)
Format settings, Endianness : Big
Codec ID : A_AC3
Duration : 2h 20mn
Bit rate mode : Constant
Bit rate : 640 Kbps
Channel(s) : 6 channels
Channel positions : Front: L C R, Side: L R, LFE
Sampling rate : 48.0 KHz
Frame rate : 31.250 fps (1536 spf)
Compression mode : Lossy
Stream size : 645 MiB (57%)
Title : www.SANET.ST
Language : English
Default : Yes
Forced : No



Related Torrents

torrent name size age seed leech
2.2 GB 19 seconds 41 415
314.6 MB 3 minutes 174 120
258.0 MB 3 minutes 18 421
1.2 GB 5 minutes 68 432
1.1 GB 7 minutes 301 327

Sharing Widget


Download torrent
1.1 GB
seeders:1214
leechers:386
First Man 2018 720p BluRay [email protected]



To share this torrent use the code below and insert it into comments, status messages, forum posts or your signature.

Torrent: First Man 2018 720p BluRay [email protected]

Comments

Latest Searches