Ajab Singh Ki Gajab Kahani 2018 1x264 720p Esub Amazon Hindi GOPISAHI torrent download

seeders: 156
leechers: 126
updated:
Added ago by PENDUDESI ***** in Movies
Torrent Downloaded 10 times.
Info Hash: 5C3DCE8FF95DA0818FE98A90EA6D1019781FCD0D


Torrent Files

Ajab Singh Ki Gajab Kahani 2018 1x264 720p Esub Amazon Hindi GOPISAHI (Size: 642.5 MB)
  Ajab Singh Ki Gajab Kahani 2018 1x264 720p Esub Amazon Hindi GOPISAHI 642.5 MB

Torrent Description



http://www.gopisahi.pw/

Format : Matroska
Format version : Version 4 / Version 2
File size : 643 MiB
Duration : 1 h 52 min
Overall bit rate : 797 kb/s
Movie name : Ajab Singh Ki Gajab Kahani 2018 GOPISAHI

Video
Format : AVC
Codec ID : V_MPEG4/ISO/AVC
Duration : 1 h 52 min
Bit rate : 699 kb/s
Width : 1 280 pixels
Height : 528 pixels
Display aspect ratio : 2.40:1
Frame rate mode : Constant
Frame rate : 24.000 FPS
Color space : YUV
Chroma subsampling : 4:2:0
Bit depth : 8 bits
Scan type : Progressive
Bits/(Pixel*Frame) : 0.043
Stream size : 563 MiB (88%)
Title : GOPISAHI
Writing library : x264 core 157 r2935 545de2f

Audio
Format : AAC
Duration : 1 h 52 min
Bit rate : 96.0 kb/s
Channel(s) : 2 channels
Channel positions : Front: L R
Sampling rate : 48.0 kHz
Frame rate : 46.875 FPS (1024 SPF)
Compression mode : Lossy
Delay relative to video : -21 ms
Stream size : 77.4 MiB (12%)
Title : GOPISAHI
Language : Hindi

Text
Language : English




Related Torrents

torrent name size age seed leech
578.0 MB 1 minute 175 394
10.7 GB 1 minute 557 76
903.9 MB 4 minutes 186 311
1.3 GB 4 minutes 38 470
1.3 GB 4 minutes 496 318

Sharing Widget


Download torrent
642.5 MB
seeders:1214
leechers:386
Ajab Singh Ki Gajab Kahani 2018 1x264 720p Esub Amazon Hindi GOPISAHI



To share this torrent use the code below and insert it into comments, status messages, forum posts or your signature.

Torrent: Ajab Singh Ki Gajab Kahani 2018 1x264 720p Esub Amazon Hindi GOPISAHI

Comments

Latest Searches